logo

Денис борисов тушку на просушку 2011 pdf. Борисов Денис. Программа МЕЧТА 104% [PDF]

Денис борисов тушку на просушку 2011 pdf Rating: 5,1/10 397 reviews

Скачать книгу Денис Борисов

денис борисов тушку на просушку 2011 pdf

Иначе говоря, конкретные шаги: что за чем и как нужно делать. Поэтому создание копилки идей весьма полезное занятие. Начальные три класса я закончил в Киеве, а старшие классы в Минске. Скачать бесплатно Денис Борисов - Тушку на просушку 2013 на высокой скорости и по прямой ссылке! Право, мне жаль останавливать столь яркий полет вашей фантазии;- Идем дальше. Это два ведущих ученых, которые создали великолепные работы связанные с развитием. Для этого случая мне пришлось разработать дополнительный вариант, в котором дета нуждается в большем количестве калорий 2000-2500 ккал чем обычно. В пособии рассмотрены варианты действий для мужчин и для женщин для получения разумного и адекватного результата.

Next

Книга Тушку на просушку (2011) бесплатно

денис борисов тушку на просушку 2011 pdf

Год выпуска: 2013 Жанр: Издательство: Серия: Полный медицинский справочник Язык: Количество страниц: 912 Описание: Перед вами дополненный и актуализированный справочник, содержащий все необходимое для правильного определения и лечения различных заболеваний. Натуральный рост мышц без анаболиков - безумно сложный процесс, который требует от вас скрупулезного планирования и ответственности. Вы узнаете, что нужно сделать до прибытия врачей при инфаркте, инсульте, приступе астмы, аллергической ре. Лето подходит к своему финалу, но это не повод болеть. Это способ накопить нужное количество факторов роста без избытка катаболических факторов всплеск молочной кислоты и ионов водорода до нужного уровня, а затем активный отдых для их понижения. Читая их и слушая на диске, вы легко запомните современные слова и словосочетания, идиомы и фразовые глаголы, которые пригодятс.

Next

Книга Тушку на просушку (2011) бесплатно

денис борисов тушку на просушку 2011 pdf

Описаны способы фармподдержки для ускорения. Напомню: пару месяцев назад я выпустил обучающий курс под названием , который был посвящен набору мышечной массы. Для того, чтобы присутствовал прогресс в тренировках, нужно придерживаться основных правил телостроительсва. Основы телостроительства, программы тренировок, питание, спортивное питание, сушка, диеты, тренировочный дневник, азотистый баланс, анаболики, тренировки целевых мышц — все эти и многие другие аспекты рассмотрены автором в данной книге. Во имя богатства воюют - и правил в этой войне нет. Речь идет о медленных мышечных волокнах и о чудовищном развитии силовой выносливости спортсмена. Скриншоты Мои прочие раздачиХудожественные фильмы.

Next

Борисов Денис. Программа МЕЧТА 104% [PDF]

денис борисов тушку на просушку 2011 pdf

Прочитав курс вы более подробно можете узнать про упражнения для пресса и про эффективную тренировку мышц живота в домашних условиях. Помимо этого, я постарался объединить все то интересное по теме, что я уже когда то писал в статьях, на форумах и в группе. Его можно читать с любого места. В книге автор предлагает пошаговый алгоритм. Это реальная и легко достижимая цифра, если мы говорим именно о избавлении от жира, а не уменьшении количества жидкости, мышц и размера внутренних органов в теле. Еще лучше влиять сразу на две этих составляющие. Обучающий курс «Как Накачать Четкий Пресс Дома: Стратегия и Тактика! Это значит, что мужской стриптиз — сфера моей профессиональной деятельности.

Next

Борисов Денис. Программа МЕЧТА 104% [PDF]

денис борисов тушку на просушку 2011 pdf

Погони, жестокие схватки, убийства, опасные приключения, криминальные интр. Исчерпывающие описания таких симптомов, как боль, головокружение, сердцебиение, тошнота, нарушения двигательных функций, повышение температуры, кровотечения и другие, их клиническая характеристика и подробна. Формат: , изначально компьютерное Автор: Год выпуска: 2011 Жанр: Издательство: Интернет-издание Язык: Количество страниц: 48 Описание: В книге автор предлагает пошаговый алгоритм для похудения или, как это называют профессионалы, для сушки! Ведь большие мышцы - это не большая сила. Все это и составляет содержание этой базы данных. Вы узнаете, как вам тренироваться в зале, если вы единоборец чтоб не снизить «взрыв» и силовую выносливость.

Next

Книга Тушку на просушку (2011) бесплатно

денис борисов тушку на просушку 2011 pdf

Поэтому вся фитнес индустрия заинтересована чтоб вы не владели информацией и постоянно топтались по кругу тратя деньги. Денис Борисов - Тушку на просушку скачать торрент аудиокнигу бесплатно. Мы гарантируем, что личные данные строго засекречены. Размер потока : 13,7 Мбайт 19% Общее Полное имя : 11. Я не исследовал, как эта программа работает с анаболическими стероидами, потому что если вы химичите, то отказ и стресс, как факторы стимуляции тестостерона и гормона роста, для вас не так важны как для натурала. Книга представляет собой глобальное практическое и теоретическое руководство для того, чтоб изменить свое тело реконструировать по своему вкусу для решения нужных именно вам задач. В связи с этим необходимо обратить особое внимание на своевременную.

Next

Книга Тушку на просушку (2011) бесплатно

денис борисов тушку на просушку 2011 pdf

В основу книги положен собственный опыт авторского коллектива, а также последние достижения отечественной и зарубежной диетологии. Самое обидное, что никто толком не мог мне все это объяснить. Болезни становятся следствием нашего образа жизни — гиподинамии, неправильного питания, — негативного влияния стресса и окружающих нас экологических условий. Размер потока : 9,82 Мбайт 18% Общее Полное имя : 05. Год выпуска: 2006 Жанр: Народная и нетрадиционная медицина Издательство: Язык: Количество страниц: 960 Описание: «Большая энциклопедия. Они — не просто «попаданцы», а «прогрессоры» Будущего, призванные переписать русскую историю набело и завоевать нам счастливое прошлое. Главным содержанием романа становятся его предсмертные воспоминания о пережитом, которое анализируется и беспощадно оценивается человеком, прощающимся с жизнью.

Next

Борисов Денис. Программа МЕЧТА 104% [PDF]

денис борисов тушку на просушку 2011 pdf

Научившись определять и выделять мышцы, испол. Размер потока : 23,7 Мбайт 16% Общее Полное имя : 12. Размер потока : 8,54 Мбайт 18% Общее Полное имя : 07. Для входа в пиковую соревновательную форму мне понадобилось бы примерно 7-мь недель, из которых у меня было только 4-ре. Удобство книги в том, что статьи автора собраны в ней в одном месте. Эпичные грудные 2013 + видео есть в комплекте V3: Объемный прогресс 2013 - ссылка на видео есть в самой книге Антихимик 2013 - ссылка на видео есть в самой книге Анаболикум 2013 - ссылка на видео есть в самой книге Тушку на просушку 2013 - ссылка на видео есть в самой книге Тело на реконструкции Том 1-й - Закладывание Основ 2013 + видео есть в комплекте Мужская схема 2013 + видео есть в комплекте Гиперплазия 2012 + видео есть в комплекте Как накачать четкий пресс дома 2012 + видеоуроки в комплекте Катехизис культуриста 2012 + видеоролики встроены в книгу Алгоритм выбора своей программы тренировок 2012 - ссылка на видео есть в самой книге Релиз: от Rocky Balboa Денис Борисов Мужская схема 2. Толковый тренер в приличном тренажерном зале напишет вам схему сушки в 10-ть раз менее подробную, а возьмет за это минимум в 3-4 раза больше денег! Самый правдивый человек на свете спешит поведать вам о своей находчивости в далеко не простых ситуациях.

Next

Денис Борисов

денис борисов тушку на просушку 2011 pdf

В мой список обязательных на каждый день веществ входит порядка 10-ти. Денис Борисов Анаболикум: Темная Сторона Силы! Если вы не ходите в тренажерный зал, если не покупаете персональные тренировки и не тратите деньги на чудо протеины в их магазинах? Это обучающее пособие на русском языке по совмещению тренажерного зала и единоборств. Тем не менее, для отчетности мне пришлось это сделать и вы видите сейчас визуальную разницу. Причем у меня это проходило планово. Умирает Никита Ваганов — главный редактор столичной газеты.

Next